Logo
 
NOVA S44E09 The Nuclear Option 720p HDTV HEVC 2CH x265
Type: Video > HD - TV shows
Files: 3
Size: 429 MiB (449835560 Bytes)
Uploaded: 2017-01-12 11:20:00 GMT
By: nayhtut VIP
Seeders: 3
Leechers: 3
Comments: 0  
Info Hash:
DDABAC4F1475491B42E5848B255752A8D7EC2A07
Description
Source:NOVA S44E09 The Nuclear Option 720p HDTV x264-DHD (1.1 GB)

 
Complete name: NOVA.S44E09.The.Nuclear.Option.720p.HDTV.HEVC.2CH.x265.mkv
Format                                   : Matroska
Format version                           : Version 4 / Version 2
File size                                : 429 MiB
Duration                                 : 53mn 31s
Overall bit rate                         : 1 121 Kbps
Writing application                      : Lavf57.25.100

Video

ID                                       : 1
Format                                   : V_MPEGH/ISO/HEVC
Duration                                 : 53mn 31s
Bit rate                                 : 874 Kbps
Width                                    : 1 280 pixels
Height                                   : 720 pixels
Display aspect ratio                     : 16:9
Frame rate                               : 25.000 fps
Bits/(Pixel*Frame)                       : 0.038
Stream size                              : 335 MiB (78%)
Default                                  : Yes
Forced                                   : No
DURATION                                 : 00:53:31.411000000

Audio

ID                                       : 2
Format                                   : AC-3
Format/Info                              : Audio Coding 3
Mode extension                           : CM (complete main)
Format settings, Endianness              : Big
Codec ID                                 : A_AC3
Duration                                 : 53mn 31s
Bit rate mode                            : Constant
Bit rate                                 : 224 Kbps
Channel(s)                               : 2 channels
Channel positions                        : Front: L R
Sampling rate                            : 48.0 KHz
Bit depth                                : 16 bits
Compression mode                         : Lossy
Stream size                              : 85.8 MiB (20%)
Writing library                          : Lavc57.24.102 ac3
Default                                  : Yes
Forced                                   : No
DURATION                                 : 00:53:31.356000000

Text

ID                                       : 3
Format                                   : ASS
Codec ID                                 : S_TEXT/ASS
Language                                 : English
6.738.472 registered users Last updated 11:40:07.
43.372.996 peers (32.997.918 seeders + 10.375.078 leechers) in 6.358.790 torrents.